<?xml version="1.0" standalone="no"?>
<!DOCTYPE svg PUBLIC "-//W3C//DTD SVG 1.1//EN" "http://www.w3.org/Graphics/SVG/1.1/DTD/svg11.dtd" >
<svg xmlns="http://www.w3.org/2000/svg">
<metadata>Generated by IcoMoon</metadata>
<defs>
<font id="cmsmasters-demo-icons" horiz-adv-x="1024">
<font-face units-per-em="1024" ascent="960" descent="-64" />
<missing-glyph horiz-adv-x="1024" />
<glyph unicode="&#x20;" horiz-adv-x="512" d="" />
<glyph unicode="&#xe900;" glyph-name="diagonal-arrow-down" d="M381.698-32.817l558.582-2.528c9.496-0.038 18.146 3.476 24.7 9.302l3.271 3.266c5.821 6.554 9.335 15.204 9.297 24.7l-0.21 2.538-2.312 556.045c-0.086 20.573-16.837 37.321-37.408 37.407s-37.182-16.521-37.096-37.094l1.956-474.843-838.998 839.042c-14.608 14.608-38.194 14.707-52.68 0.221s-14.387-38.071 0.221-52.68l832.782-832.825-462.418 1.946c-20.573 0.086-37.18-16.519-37.094-37.096 0.086-20.572 16.834-37.317 37.407-37.403z" />
<glyph unicode="&#xe901;" glyph-name="arrow-down" d="M828.815 245.815l-298.827-301.539c-5.081-5.124-11.619-7.881-18.27-8.276h-3.515c-6.651 0.395-13.189 3.152-18.27 8.276l-1.249 1.477-297.578 300.061c-11.009 11.103-11.009 29.104 0 40.207s28.859 11.103 39.868 0l254.129-256.23-0.022 901.78c0 15.701 12.622 28.429 28.191 28.429s28.191-12.728 28.191-28.429l0.022-895.098 247.458 249.549c11.012 11.103 28.862 11.103 39.87 0s11.008-29.104 0-40.207z" />
<glyph unicode="&#xe902;" glyph-name="arrow-up" d="M828.815 650.184l-298.827 301.539c-5.081 5.124-11.619 7.883-18.27 8.277h-3.515c-6.651-0.394-13.189-3.153-18.27-8.277l-1.249-1.476-297.578-300.063c-11.009-11.102-11.009-29.103 0-40.206s28.859-11.102 39.868 0l254.129 256.231-0.022-901.779c0-15.704 12.622-28.431 28.191-28.431s28.191 12.727 28.191 28.431l0.022 895.098 247.458-249.55c11.012-11.102 28.862-11.102 39.87 0s11.008 29.103 0 40.206z" />
<glyph unicode="&#xe903;" glyph-name="bitton-arrow" d="M384.733 901.385h540.128c33.146 0 60.014-26.87 60.014-60.015v-540.132c0-33.145-26.868-60.014-60.014-60.014-33.138 0-60.014 26.869-60.014 60.014v395.244l-746.281-746.287-84.874 84.874 746.284 746.287h-395.244c-33.145 0-60.014 26.87-60.014 60.014s26.869 60.015 60.014 60.015z" />
<glyph unicode="&#xe904;" glyph-name="blueprint-1" d="M0 447.834c0 162.931 0 325.53 0 488.461 0 21.034 2.671 23.705 23.705 23.705 325.53 0 651.394 0 976.923 0 20.366 0 23.372-2.671 23.372-22.704 0-326.198 0-652.061 0-978.259 0-20.032-3.005-23.037-23.037-23.037-325.53 0-651.393 0-976.923 0-21.368 0-24.039 2.671-24.039 23.372 0 162.931 0 325.53 0 488.462zM489.797 933.29c0-5.676 0-10.684 0-15.692 0-168.608 0-337.215 0-506.157 0-4.006 1.335-9.349-0.668-12.353-3.004-4.675-8.013-10.684-12.019-10.684-4.34 0-9.348 6.344-12.019 10.684-2.003 3.004-0.334 8.013-0.334 12.353 0 168.608 0 337.216 0 506.157 0 5.008 0 9.682 0 15.358-146.572 0-292.142 0-437.713 0 0-240.392 0-480.115 0-720.173 9.015 0 16.694 0 24.707 0 21.368 0 42.402 0 63.77 0 8.681 0 14.691-3.672 14.691-13.020 0-8.681-6.010-12.353-14.023-12.353-4.007 0-8.347 0-12.353 0-25.375 0-50.749 0-76.458 0 0-75.79 0-150.579 0-225.033 103.168 0 205 0 307.167 0 0 75.122 0 149.576 0 225.033-4.34 0-8.013 0-11.686 0-27.044 0-54.088 0-81.132 0-8.347 0-14.022 3.004-14.356 12.019-0.334 9.348 5.676 13.354 14.356 13.354 3.338 0 6.678 0 10.016 0 128.543 0 257.42 0 385.962 0 5.007 0 9.682 0 15.692 0 0 19.699 0 38.062 0 56.426 0 9.348 2.003 17.695 12.687 17.695s13.356-8.013 13.356-17.362c0-20.366 0-40.732 0-61.1 0-18.029-3.005-20.7-21.034-20.7-94.153 0-188.307 0-282.46 0-4.675 0-9.682 0-14.691 0 0-76.123 0-150.244 0-225.033 97.492 0 194.317 0 292.142 0 0 5.343 0 9.683 0 14.358 0 36.726 0 73.453 0 109.844 0 9.349 0.334 18.697 12.687 19.031 13.021 0.334 13.356-10.016 13.356-19.365 0-36.726 0-73.453 0-109.844 0-4.34 0-9.015 0-14.024 107.174 0 212.68 0 318.518 0 0 208.673 0 416.678 0 624.017-106.506 0-212.012 0-318.518 0 0-5.677 0-10.017 0-14.691 0-53.755 0-107.508 0-161.263 0-4.006 1.001-9.348-1.002-12.353-2.67-4.34-8.013-9.682-12.019-9.682s-9.349 5.341-12.019 9.682c-2.003 3.005-1.002 8.013-1.002 12.353 0 71.784 0 143.233 0 215.017 0 28.046 0 55.757 0 83.803 0 8.681 2.337 16.36 12.687 16.36s13.021-7.345 13.021-16.026c0-27.378 0-55.090 0-82.468 0-4.34 0.334-8.681 0.668-13.354 106.506 0 212.346 0 317.85 0 0 106.84 0 213.347 0 319.519-106.506 0-212.012 0-318.518 0 0-22.704 0-44.406 0-65.774 0-9.015 0-18.363 0-27.378 0-16.359-4.006-23.037-13.356-22.37-13.688 1.336-12.687 12.020-12.687 21.703 0 8.013 0 15.692 0 23.705 0 23.371 0 46.409 0 70.448-55.089-0.668-108.509-0.668-163.265-0.668z" />
<glyph unicode="&#xe905;" glyph-name="blueprint-2" d="M862.849 40.99c-41.442 0-81.567 0-122.679 0-0.329-3.289-0.657-6.908-0.657-10.524 0-22.036 0-44.401 0-66.437 0-17.432-3.618-21.050-20.721-21.050-102.615 0-205.231 0-307.519 0-112.482 0-224.637 0-337.119 0-2.96 0-5.591 0-8.551 0-7.565-0.329-16.774 0-18.089 8.552-0.987 5.59 2.631 13.484 6.907 17.759 22.365 24.010 45.717 47.033 70.713 72.358-6.249 0-10.854 0-15.787 0-54.926 0.329-96.696 41.77-96.696 96.367-0.329 241.739-0.329 483.478-0.329 724.889 0 54.597 36.508 90.775 91.433 90.775 19.734 0 39.468 0 59.202 0 14.8 0 19.075-3.947 19.075-19.076 0-40.783 0-81.238 0-123.995 5.92 0 10.853 0 16.116 0 238.779 0 477.558-0.986 716.337 0.659 57.886 0.329 107.879-41.442 107.55-108.208-0.987-219.374-0.33-439.077-0.33-658.451 0-58.872-43.085-101.959-101.629-102.287-13.157 0-26.312 0-39.468 0-11.182 0-16.445 4.933-16.445 16.445-0.986 27.628-1.315 54.268-1.315 82.225zM37.317 807.649c0-7.565 0-11.84 0-15.787 0.329-218.716 0.658-437.433 0-656.149 0-29.272 22.036-61.833 58.215-67.095 13.156-1.973 26.97-0.987 40.454-1.975 10.854-0.986 18.089 2.961 25.654 10.526 164.777 163.791 329.883 327.581 494.99 491.372 19.075 18.747 37.494 37.822 57.228 56.24 3.947 3.947 12.498 6.908 16.773 5.263 4.276-1.973 6.249-10.196 8.222-15.787 0.987-2.959 0.329-6.578 0.329-9.867 0-173.328 0-346.986 0-520.315 0-5.262 0-10.524 0-15.787 42.099 0 82.225 0 123.666 0 0 5.592 0 10.526 0 15.459 0 176.617 0 353.564 0 530.182 0 15.787 3.617 19.405 19.404 19.734 13.157 0 26.312-0.329 39.468 0 36.507 0.657 67.095 26.64 71.699 60.517 5.92 42.428-13.814 77.619-50.979 88.472-10.524 2.961-21.708 3.947-32.889 3.947-267.064 0.33-534.129 0.33-801.193 0-24.996-0.657-49.006 1.645-71.042 21.050zM622.754 494.539c-15.787-16.116-30.259-30.916-46.046-46.703 7.565-7.236 16.116-15.459 24.997-23.681 6.578-6.249 11.182-13.155 3.288-21.049-7.565-7.565-14.8-3.947-21.049 2.631-8.552 8.881-17.103 17.432-25.326 26.312-15.457-15.787-29.93-30.916-45.716-47.361 7.894-7.236 16.773-15.787 25.653-24.010 6.908-6.249 10.526-13.485 2.961-21.050-7.565-7.892-15.13-3.617-21.050 2.961-8.551 9.208-16.773 18.747-24.996 28.285-16.773-17.103-31.245-31.903-47.032-48.019 8.88-8.222 18.089-16.773 27.298-25.653 6.908-6.25 9.867-13.814 2.302-21.379-7.235-6.906-14.471-3.618-20.063 2.959-8.551 9.538-17.102 19.405-25.653 29.272-17.103-17.432-31.575-32.232-47.032-48.019 8.551-8.222 17.759-17.102 26.64-25.654 6.578-6.249 11.182-13.155 3.288-21.049-7.564-7.565-14.8-3.947-21.378 2.631-8.551 9.21-17.103 18.748-25.326 27.628-16.116-16.773-30.587-31.575-46.046-47.691 8.222-7.892 18.089-17.102 27.628-26.64 5.92-5.92 8.222-12.827 1.973-19.404-6.906-7.236-14.143-4.934-20.392 1.645-9.208 9.537-18.747 19.404-27.956 29.271-15.457-16.116-29.93-30.916-45.716-47.032 8.88-8.552 18.418-17.761 27.955-26.64 6.908-6.579 9.867-13.814 2.303-21.379-7.565-7.236-14.473-3.289-20.063 2.959-8.881 9.867-17.761 20.063-26.642 30.259-17.102-17.759-31.573-32.561-47.361-49.005 8.88-8.222 18.747-17.431 28.614-26.64 6.578-5.92 9.538-13.157 2.631-20.392-7.235-7.565-14.8-4.276-21.049 2.302-9.208 9.867-18.418 19.734-25.983 27.956-28.614-29.272-55.583-56.899-80.908-82.882 202.93 0 409.148 0 615.365 0 0 205.231 0 409.805 0 614.050-24.008-24.338-47.689-48.018-72.028-72.685 7.894-7.565 16.773-16.116 25.654-24.668 6.578-6.249 9.208-13.484 2.302-20.392-6.908-6.906-14.143-4.276-20.392 2.302-9.21 8.881-17.761 17.761-25.654 25.654zM993.42 638.267c-29.93-30.916-66.437-33.547-103.931-31.245 0-213.126 0-424.935 0-638.389 17.102 0.987 33.218-0.329 48.677 2.631 29.93 5.92 56.57 33.548 56.242 76.304-0.659 192.076-0.329 383.823-0.329 575.899 0.329 4.276-0.33 8.222-0.659 14.8zM154.075 927.367c-23.022 0-44.73 1.316-66.437-0.329-25.654-1.644-47.69-25.654-49.992-51.637-2.631-29.601 11.84-56.241 38.152-60.846 25.325-4.604 51.637-3.288 77.949-4.604 0.329 40.783 0.329 78.606 0.329 117.416zM626.819 158.73c0-18.089 0.329-36.179 0-54.268-0.659-25.653-19.734-47.032-45.059-48.018-39.14-1.316-78.607-0.987-118.075 0-19.734 0.657-33.218 12.827-41.112 30.587-8.222 18.747-6.579 37.165 7.564 51.636 37.166 38.481 74.99 75.976 113.471 112.812 15.129 14.471 34.534 16.116 53.938 7.236 18.748-8.551 28.944-23.681 29.601-44.401 0-18.747-0.329-37.166-0.329-55.584zM521.901 81.111c17.102 0 34.534-0.329 51.636 0s27.956 10.196 28.285 27.298c0.659 34.205 0.33 68.082 0 102.287 0 11.512-4.933 21.049-16.116 25.326-10.853 4.276-20.72 1.643-29.271-6.579-34.534-34.534-69.068-68.739-103.932-103.274-8.551-8.222-11.182-18.089-6.578-29.271s13.485-16.116 25.326-16.116c17.102 0.329 33.877 0.329 50.65 0.329z" />
<glyph unicode="&#xe906;" glyph-name="bricks" d="M1023.667 446.834c0-161.947 0-323.895 0-485.842 0-23.325-1.667-24.992-24.659-24.992-324.895 0-649.788 0-974.349 0-22.992 0-24.659 1.667-24.659 24.992 0 324.895 0 649.788 0 974.349 0 22.993 1.666 24.659 24.992 24.659 325.228 0 650.455 0 975.683 0 21.326 0 23.325-1.999 23.325-23.659-0.333-163.28-0.333-326.561-0.333-489.507zM524.163 933.009c0-104.3 0-206.933 0-309.233 158.282 0 315.898 0 472.846 0 0 103.633 0 206.267 0 309.233-157.615 0-314.898 0-472.846 0zM26.325 623.776c157.615 0 314.231 0 470.514 0 0 103.633 0 206.267 0 309.233-157.283 0-313.564 0-470.514 0 0-103.3 0-205.933 0-309.233zM524.163 265.559c0-101.633 0-201.601 0-302.235 158.282 0 315.564 0 473.179 0 0 101.3 0 201.268 0 302.235-157.948 0-314.897 0-473.179 0zM26.325 265.559c0-101.633 0-201.601 0-301.901 157.282 0 313.898 0 470.846 0 0 101.299 0 201.267 0 301.901-157.281 0-313.564 0-470.846 0zM732.762 595.119c-148.618 0-296.237 0-443.523 0 0-101.3 0-201.268 0-301.569 148.285 0 295.904 0 443.523 0 0 100.968 0 200.602 0 301.569zM759.42 293.55c80.307 0 159.281 0 238.255 0 0 101.3 0 201.268 0 301.902-79.64 0-158.615 0-238.255 0 0-100.968 0-200.934 0-301.902zM26.658 595.452c0-100.968 0-201.601 0-302.235 78.974 0 156.949 0 235.59 0 0 100.966 0 201.267 0 302.235-78.973 0-156.949 0-235.59 0z" />
<glyph unicode="&#xe907;" glyph-name="cancel" d="M15.67 944.329c20.893 20.895 54.769 20.894 75.663 0.001l404.668-404.67 404.666 404.669c20.896 20.896 54.771 20.891 75.667 0.001 20.89-20.893 20.89-54.769 0-75.663l-404.669-404.669 404.669-404.67c20.89-20.89 20.89-54.765 0-75.661-10.445-10.438-24.166-15.667-37.837-15.667-13.664 0-27.386 5.222-37.83 15.667l-404.666 404.669-404.666-404.669c-10.445-10.438-24.165-15.667-37.832-15.667-13.666 0-27.387 5.222-37.831 15.667-20.895 20.896-20.894 54.771-0.001 75.661l404.667 404.672-404.667 404.667c-20.896 20.894-20.891 54.77-0.001 75.662z" />
<glyph unicode="&#xe908;" glyph-name="chevron-down" d="M20.364 621.88l442.472-442.472c27.152-27.152 71.175-27.152 98.327 0l442.472 442.472c27.152 27.152 27.152 71.175 0 98.327s-71.175 27.152-98.327 0l-393.308-393.308-393.309 393.308c-27.152 27.152-71.175 27.152-98.327 0s-27.152-71.175 0-98.327z" />
<glyph unicode="&#xe909;" glyph-name="chevron-left" d="M243.206 430.753c-25.608 25.608-25.608 67.127 0 92.735l417.307 417.307c25.608 25.608 67.126 25.608 92.735 0s25.608-67.127 0-92.735l-370.939-370.939 370.939-370.938c25.608-25.606 25.608-67.13 0-92.736s-67.127-25.606-92.735 0l-417.307 417.306z" />
<glyph unicode="&#xe90a;" glyph-name="chevron-right" d="M757.794 430.753c25.608 25.608 25.608 67.127 0 92.735l-417.306 417.307c-25.608 25.608-67.127 25.608-92.735 0s-25.608-67.127 0-92.735l370.939-370.939-370.939-370.938c-25.608-25.606-25.608-67.13 0-92.736s67.127-25.606 92.735 0l417.306 417.306z" />
<glyph unicode="&#xe90b;" glyph-name="chevron-up" d="M20.364 277.691l442.472 442.472c27.152 27.152 71.175 27.152 98.327 0l442.472-442.472c27.152-27.152 27.152-71.175 0-98.327s-71.175-27.152-98.327 0l-393.308 393.31-393.309-393.31c-27.152-27.152-71.175-27.152-98.327 0s-27.152 71.175 0 98.327z" />
<glyph unicode="&#xe90c;" glyph-name="couch-1" d="M611.848 247.99c-15.47 14.483-17.775 32.586-17.445 52.005 0.329 69.779 0 139.557 0 209.336 0 4.938 0 9.875 0 16.457-5.595 0-10.533 0-15.141 0-70.437 0-140.545 0.33-210.982 0-19.421 0-37.853 1.646-52.335 17.445-14.153-14.811-31.597-17.445-50.359-17.445-64.841 0.33-130.013 0-194.854 0-39.498 0-59.246 19.749-59.246 58.918 0 66.488 0 132.975 0 199.463 0 17.445 3.292 34.231 0.988 52.663-3.95 32.256-1.317 65.5-0.988 98.415 0 14.153 4.279 18.432 18.432 18.432 324.867 0 650.063 0 974.93 0 14.154 0 18.432-4.279 18.432-18.432 0-324.538 0-648.747 0-973.285 0-14.153-4.278-18.102-18.432-18.432-33.243 0-67.145-3.291-99.731 0.987-27.977 3.951-54.639-3.949-82.287-1.645-28.307 2.303-56.613 0.657-85.249 0.657-28.307 0-56.613 0-85.249 0-37.193 0-57.601 20.408-57.929 57.931 0 65.829 0.329 131.329 0 197.158-0.33 18.762 2.962 35.548 17.445 49.372zM996.29-29.48c0 319.601 0 637.555 0 955.84-319.601 0-638.872 0-957.815 0 0-28.307 0-55.297 0-83.603 5.925 0 11.191 0 16.457 0 278.128 0 556.257 0 834.385 0 21.065 0 23.040-1.975 23.040-23.37 0-277.47 0-555.268 0-832.74 0-5.265 0-10.532 0-16.127 28.307 0 55.626 0 83.933 0zM621.392 816.425c0-88.541 0-176.093 0-263.975 88.212 0 175.764 0 264.305 0 0 88.211 0 175.764 0 263.975-88.541 0-176.423 0-264.305 0zM593.744 816.425c-88.211 0-176.093 0-263.975 0-0.33-3.292-0.659-5.595-0.659-7.9 0-76.361 0-152.723 0-228.755 0-18.762 9.216-27.649 28.307-27.649 75.704 0 151.407 0 226.782 0 3.291 0 6.253 0.659 9.545 0.987 0 87.882 0 175.107 0 263.317zM620.734 525.131c0-4.938 0-9.216 0-13.824 0-72.742 0-145.154 0-217.895 0-24.686 7.571-32.586 31.927-32.586 73.729 0 147.129 0 220.858 0 3.949 0 7.899 0.329 12.178 0.659 0 88.211 0 175.434 0 263.316-88.212 0.33-176.094 0.33-264.963 0.33zM886.355 234.825c-5.595 0-9.875 0-13.825 0-73.728 0-147.127 0-220.857 0-23.040 0-31.269-7.9-31.269-30.94 0-67.147 0-134.621 0-201.767 0-24.027 7.57-31.927 31.599-31.927 66.487 0 133.303 0 199.791 0 27.319 0 34.561 6.913 34.561 34.232 0 72.083 0 144.495 0 216.577 0 3.621 0 7.571 0 13.825zM302.779 815.766c-2.633 0.659-3.949 1.317-4.937 1.317-78.009 0-156.345 0.329-234.352 0-17.774 0-26.003-9.875-26.003-28.637 0-68.791 0-137.911 0-206.703 0-21.065 8.558-29.624 30.281-29.624 68.134 0 136.596 0 204.729 0 22.053 0 30.281 8.559 30.281 30.611 0 54.967 0 109.935 0 164.902 0 22.381 0 45.093 0 68.133z" />
<glyph unicode="&#xe90d;" glyph-name="couch-2" d="M138.532 329.946c12.321 0.999 23.31 2.332 34.633 2.332 55.612 0.333 111.225-0.001 166.837 0.333 15.651 0 29.638-2.997 41.958-14.32 13.653 12.987 30.637 14.652 48.287 14.32 55.945-0.334 112.223-0.334 168.168 0 14.985 0 28.639-3.33 40.96-14.652 13.32 13.32 30.637 14.652 48.287 14.652 53.947-0.334 107.895 0 162.175-0.333 10.656 0 21.313-1.665 32.635-2.332-0.334-0.333 0.666 0 0.666 0.667 2.664 26.308 2.664 26.308 28.972 26.308 29.97 0 59.941 0 89.578 0 15.985 0 19.647-3.997 19.647-19.981 0-126.876 0-253.751 0-380.961 0-15.985-3.663-19.978-19.647-19.978-327.346 0-654.693 0-982.041 0-15.984 0-19.647 3.661-19.647 19.978 0 126.876 0 253.752 0 380.961 0 15.985 3.663 19.981 19.647 19.981 31.636 0 63.272 0 94.575 0 20.313 0 22.645-2.332 23.643-22.645 0.333-1.665 0.667-2.997 0.667-4.329zM112.223 329.946c-29.304 0-56.944 0-84.584 0 0-122.547 0-244.761 0-366.642 323.018 0 644.703 0 967.055 0 0 122.547 0 244.095 0 366.309-28.638 0-56.611 0-84.917 0 0-5.328 0-9.99 0-14.652 0-81.92 0-163.84 0-246.093 0-17.317-2.996-20.647-19.98-20.647-252.753 0-505.173 0-757.926 0-16.317 0-19.649 3.33-19.649 19.647 0 82.253 0 164.839 0 247.092 0 4.995 0 9.325 0 14.985zM368.973 75.195c0 4.662 0 8.325 0 11.988 0 63.938 0 128.208 0 192.145 0 20.314-6.327 26.64-26.64 26.64-57.943 0-116.22 0-174.163 0-24.643 0-29.971-5.328-29.971-29.97 0-62.273 0-124.878 0-187.15 0-4.329 0.334-8.991 0.667-13.653 76.925 0 153.183 0 230.108 0zM652.696 75.528c77.259 0 153.85 0 231.109 0 0 23.643 0 45.955 0 68.267 0 45.621 0 91.576 0 137.199 0 16.65-6.994 24.643-21.314 24.643-62.938 0.334-126.21 0.334-189.148 0-12.655 0-20.313-7.658-20.313-20.313-0.334-69.265-0.334-138.532-0.334-209.795zM625.057 75.195c0.333 2.331 0.998 3.996 0.998 5.661 0 67.934 0 135.535 0 203.468 0 15.319-7.66 21.645-23.976 21.645-59.942 0-119.55 0-179.492 0-21.313 0-26.974-5.993-26.974-27.639 0-63.605 0-127.209 0-190.814 0-3.996 0.334-7.992 0.667-12.321 76.925 0 152.85 0 228.777 0zM883.144 565.718c-14.985-0.666-29.305-1.998-43.623-1.998-51.617-0.333-102.9 0-154.516-0.333-16.65 0-32.301 1.998-45.288 14.652-12.655-11.655-27.64-14.652-43.957-14.652-56.612 0.333-112.89 0.333-169.502 0-16.317 0-31.303 2.331-43.623 14.652-12.655-11.988-27.64-14.652-43.957-14.652-52.615 0.333-105.564 0-158.179 0.333-13.653 0-26.973 1.332-41.293 1.998 0.333 0.333-0.333-0.333-0.666-0.998-1.665-25.309-2.332-25.642-28.306-25.642-29.97 0-59.941 0-89.579 0-16.983 0-20.313 3.663-20.313 20.647 0 126.543 0 253.086 0 379.629 0 16.983 3.663 20.647 20.313 20.647 327.014 0 653.695 0 980.709 0 16.984 0 20.647-3.663 20.647-20.313 0-126.544 0-253.086 0-379.629 0-17.317-2.997-20.313-20.313-20.647-31.304 0-62.274 0-93.576 0-21.978 0-22.978 0.999-24.309 22.978-0.334 1.332-0.667 2.997-0.667 3.33zM994.701 932.693c-323.351 0-645.036 0-967.721 0 0-122.546 0-244.095 0-366.309 28.639 0 56.611 0 85.25 0 0 5.328 0 9.99 0 14.652 0 81.92 0 163.84 0 246.093 0 17.982 2.997 20.646 20.979 20.646 251.754 0 503.509 0 755.263 0 18.315 0 20.979-2.996 20.979-20.646 0-82.253 0-164.839 0-247.092 0-4.328 0-8.991 0-13.653 28.972 0 56.612 0 84.917 0 0.333 121.881 0.333 243.762 0.333 366.309zM139.204 820.803c-0.666-2.664-0.998-3.996-0.998-4.995 0-67.268-0.334-134.535 0-202.136 0-16.984 7.326-23.644 24.975-23.644 59.608 0 119.55 0 179.158 0 20.314 0 26.64 6.327 26.64 26.641 0 63.938 0 128.208 0 192.145 0 3.996-0.333 7.992-0.666 11.988-76.925 0-152.518 0-229.11 0zM652.703 820.803c0-4.995 0-7.992 0-11.322 0-64.27 0-128.874 0-193.145 0-19.647 6.326-25.975 25.974-25.975 58.61 0 116.887 0 175.496 0 23.976 0 29.638 5.329 29.638 29.305 0 62.605 0 125.544 0 188.15 0 4.329-0.334 8.658-0.667 13.32-77.258-0.333-153.183-0.333-230.441-0.333zM396.286 820.803c-0.333-3.996-0.666-7.326-0.666-10.656 0-64.937 0-129.874 0-194.81 0-18.982 6.66-25.309 25.641-25.309 58.942 0 117.885 0 176.827 0 22.312 0 28.305 5.662 28.305 27.64 0 63.605 0 127.209 0 190.814 0 3.996-0.333 7.991-0.666 11.988-77.258 0.333-153.183 0.333-229.443 0.333z" />
<glyph unicode="&#xe90e;" glyph-name="couch-3" d="M883.046 566.129c-11.996-1-22.66-2.333-33.323-2.666-55.648-0.333-111.298 0-166.946-0.333-15.995 0-30.657 2.333-42.985 14.662-13.662-12.663-29.991-14.662-47.318-14.662-55.982 0.333-112.297 0.333-168.279 0-15.661 0-29.657 2.665-41.653 14.662-12.996-12.663-28.99-14.662-45.985-14.662-54.316 0.333-108.965 0-163.28 0.333-10.997 0-21.993 1.666-33.99 2.333 0.334 0.334-0.333 0-0.666-0.667-2.333-25.991-2.333-25.991-29.324-25.991-29.99 0-59.98 0-89.637 0-16.328 0-19.66 3.332-19.66 19.994 0 126.959 0 253.917 0 381.209 0 15.995 3.665 19.66 19.993 19.66 327.56 0 655.12 0 982.68 0 15.995 0 19.661-3.665 19.661-19.993 0-126.959 0-253.917 0-381.209 0-16.329-3.332-19.661-19.661-19.661-31.656 0-63.312 0-94.635 0-20.993 0-22.66 1.333-23.66 22.326-0.999 1.999-1.332 3.665-1.332 4.665zM994.677 933.009c-323.561 0-645.457 0-968.352 0 0-122.626 0-244.254 0-366.547 28.657 0 56.648 0 85.306 0 0 5.332 0 9.997 0 14.662 0 81.973 0 163.946 0 246.254 0 17.994 2.999 20.66 20.993 20.66 251.918 0 503.836 0 755.754 0 18.328 0 20.993-2.999 20.993-20.66 0-82.307 0-164.946 0-247.253 0-4.332 0-8.997 0-13.662 28.99 0 56.649 0 84.973 0 0.333 121.96 0.334 243.921 0.334 366.547zM368.547 821.045c-77.642 0-153.616 0-229.592 0-0.667-1.666-1.333-2.333-1.333-2.999 0-68.978-0.333-137.955 0-207.266 0-13.995 8.331-20.326 22.993-20.326 61.313 0 122.96 0 184.273 0 16.329 0 23.326 7.331 23.66 23.658 0 25.326 0 50.65 0 75.976 0 42.985 0 86.305 0 130.957zM652.454 821.045c0-4.998 0-7.997 0-11.33 0-64.312 0-128.958 0-193.271 0-19.66 6.331-25.991 25.992-25.991 58.648 0 116.961 0 175.609 0 23.992 0 29.657 5.332 29.657 29.323 0 62.646 0 125.626 0 188.273 0 4.332-0.333 8.664-0.666 13.328-77.309-0.333-153.284-0.333-230.593-0.333zM395.871 821.378c-0.333-4.332-0.667-7.664-0.667-10.996 0-64.979 0-129.958 0-194.937 0-18.994 6.664-25.325 25.658-25.325 58.981 0 117.962 0 176.942 0 22.326 0 27.991 5.665 27.991 27.657 0 63.646 0 127.291 0 190.938 0 3.999-0.667 7.997-0.667 12.329-76.641 0.333-152.283 0.333-229.258 0.333zM511.159 405.515c128.292 3.666 238.589-101.633 238.589-234.256 0-131.624-105.299-235.257-239.256-235.257s-239.256 103.633-239.256 235.257c0 131.957 110.298 238.255 239.922 234.256zM510.16-37.673c115.295-3.666 213.263 89.971 213.597 208.265 0.333 116.962-93.637 209.266-212.931 209.598s-213.264-91.637-213.597-208.932c-0.334-119.295 98.968-212.598 212.931-208.932z" />
<glyph unicode="&#xe90f;" glyph-name="diagonal-arrow" d="M402.645 933.529l558.583 2.524c9.496 0.040 18.146-3.476 24.7-9.297l3.271-3.27c5.821-6.554 9.335-15.205 9.297-24.7l-0.216-2.535-2.312-556.045c-0.086-20.577-16.831-37.322-37.403-37.408-20.577-0.086-37.182 16.519-37.096 37.090l1.956 474.843-839-839.042c-14.608-14.605-38.194-14.702-52.68-0.221-14.486 14.487-14.387 38.071 0.221 52.682l832.783 832.824-462.42-1.945c-20.573-0.087-37.18 16.521-37.094 37.094s16.834 37.32 37.407 37.407z" />
<glyph unicode="&#xe910;" glyph-name="menu" d="M1024 624.37h-1024v47.63h1024v-47.63zM1024 424.185h-1024v47.63h1024v-47.63zM704 224h-704v47.629h704v-47.629z" />
<glyph unicode="&#xe911;" glyph-name="left-arrow" d="M309.816 768.886l-301.539-298.827c-5.124-5.081-7.883-11.619-8.277-18.27v-3.515c0.394-6.651 3.153-13.189 8.277-18.27l1.476-1.249 300.063-297.578c11.102-11.008 29.103-11.008 40.206 0s11.102 28.859 0 39.867l-256.231 254.131 901.779-0.022c15.704 0 28.431 12.622 28.431 28.191s-12.727 28.191-28.431 28.191l-895.098 0.022 249.55 247.459c11.102 11.009 11.102 28.859 0 39.868s-29.103 11.009-40.206 0z" />
<glyph unicode="&#xe912;" glyph-name="letter" d="M73.296 788.107c2.856 0.799 5.868 1.227 8.979 1.227h859.453c21.817 0 42.746-8.668 58.175-24.098s24.098-36.356 24.098-58.177v-554.989c0-21.823-8.67-42.746-24.098-58.18-15.428-15.428-36.358-24.098-58.175-24.098h-859.453c-21.821 0-42.747 8.67-58.177 24.098-15.429 15.434-24.098 36.358-24.098 58.18v554.254c0 21.82 8.668 42.747 24.098 58.176 13.298 13.298 30.68 21.574 49.198 23.607zM89.261 722.84c-2.253-0.482-4.59-0.736-6.987-0.736-4.185 0-8.199-1.662-11.159-4.622s-4.622-6.973-4.622-11.158v-554.254c0-4.187 1.663-8.203 4.622-11.162s6.973-4.619 11.159-4.619h859.453c4.181 0 8.198 1.661 11.156 4.619s4.625 6.975 4.625 11.162v554.989c0 4.185-1.667 8.199-4.625 11.159s-6.975 4.622-11.156 4.622h-852.466zM100.848 681.416c10.883 14.788 31.695 17.954 46.483 7.070l364.669-268.385 364.669 268.385c14.785 10.884 35.601 7.719 46.484-7.070s7.72-35.6-7.071-46.484l-384.375-282.886c-11.722-8.63-27.692-8.63-39.414 0l-384.375 282.886c-14.788 10.884-17.954 31.696-7.070 46.484z" />
<glyph unicode="&#xe913;" glyph-name="minus" d="M1024 464.309c0-19.28-15.631-34.909-34.908-34.909h-954.183c-19.28 0-34.909 15.629-34.909 34.909s15.629 34.909 34.909 34.909h954.183c19.277 0 34.908-15.629 34.908-34.909z" />
<glyph unicode="&#xe914;" glyph-name="moon" d="M412.607 848.114c12.089-12.066 15.818-30.18 9.477-46.040-15.65-39.141-24.437-82.446-24.437-127.241 0-188.513 152.82-341.334 341.335-341.334 44.914 0 87.922 8.892 127.3 24.718 15.855 6.372 33.98 2.668 46.069-9.409 12.083-12.078 15.798-30.202 9.438-46.063-62.948-156.951-216.536-267.913-396.142-267.913-235.642 0-426.667 191.022-426.667 426.664 0 179.475 110.8 332.968 267.569 396.004 15.848 6.373 33.968 2.679 46.058-9.387zM315.994 730.888c-80.17-62.486-131.681-159.953-131.681-269.391 0-188.516 152.82-341.331 341.333-341.331 109.456 0 206.941 51.524 269.422 131.721-18.358-2.446-37.080-3.721-56.087-3.721-235.643 0-426.668 191.027-426.668 426.668 0 18.939 1.257 37.666 3.681 56.054z" />
<glyph unicode="&#xe915;" glyph-name="plus" d="M519.854 960c19.277 0 34.908-15.629 34.908-34.909v-954.183c0-19.277-15.631-34.908-34.908-34.908-19.28 0-34.91 15.631-34.91 34.908v954.183c0 19.28 15.629 34.909 34.91 34.909zM1024 440.284c0-19.282-15.631-34.908-34.908-34.908h-954.183c-19.28 0-34.909 15.626-34.909 34.908 0 19.28 15.629 34.909 34.909 34.909h954.183c19.277 0 34.908-15.629 34.908-34.909z" />
<glyph unicode="&#xe916;" glyph-name="quotaiton" d="M702.401 476.266c78.932 0 156.8 0 234.932 0 0-124 0-246.932 0-370.132-123.466 0-246.4 0-369.866 0-0.266 3.466-0.534 6.932-0.534 10.132 0 114.134-0.266 228.268 0 342.4 0.268 143.2 89.068 265.334 224.534 310.4 37.066 12.268 74.934 17.068 114.934 15.468 0-44.534 0-88.8 0-134.134-62.134 1.866-115.2-17.6-157.068-64.266-27.2-30.934-42.666-67.2-46.932-109.868zM875.201 754.666c-25.6-5.6-49.6-9.066-72.268-16.266-122.132-38.4-203.732-150.134-204-278.666-0.266-104 0-208.268 0-312.268 0-3.2 0.268-6.4 0.534-9.6 102.4 0 204 0 305.866 0 0 102.4 0 204.268 0 307.2-78.932 0-156.8 0-234.932 0-2.4 49.068 8 93.6 34.4 133.868 38.4 58.932 92.8 92.532 162.666 101.6 2.934 0.266 7.734 3.2 7.734 4.8 0.266 22.132 0 44 0 69.332zM458.4 105.865c-123.466 0-246.134 0-370.4 0 0 3.732 0 7.2 0 10.666 0 113.066 0 226.134 0 339.2 0.267 157.6 103.2 286.934 256.8 321.334 26.666 5.866 54.4 6.666 82.934 9.866 0-47.2 0-91.466 0-136.8-61.6 2.134-114.668-17.334-156.534-63.466-28-30.934-45.334-71.734-47.466-109.868 77.866 0 156 0 234.4 0 0.266-124.266 0.266-246.932 0.266-370.932zM396.8 752.797c-13.6-1.866-26.134-2.932-38.4-5.332-140.534-28-237.867-146.134-238.4-289.334-0.267-103.466 0-206.934 0-310.4 0-3.2 0.267-6.4 0.533-9.866 102.4 0 204 0 306.133 0 0 102.132 0 203.732 0 306.666-78.4 0-156.532 0-234.132 0-0.534 2.134-1.068 2.934-1.068 4-2.132 59.734 15.468 112.8 54.934 157.866 38.134 43.2 86.134 67.734 143.466 74.4 2.4 0.268 6.668 3.2 6.668 4.8 0.266 21.868 0.266 43.734 0.266 67.2z" />
<glyph unicode="&#xe917;" glyph-name="right-arrow" d="M714.185 768.886l301.539-298.827c5.124-5.081 7.881-11.619 8.276-18.27v-3.515c-0.395-6.651-3.152-13.189-8.276-18.27l-1.477-1.249-300.061-297.578c-11.103-11.008-29.104-11.008-40.207 0s-11.103 28.859 0 39.867l256.23 254.131-901.78-0.022c-15.701 0-28.429 12.622-28.429 28.191s12.728 28.191 28.429 28.191l895.098 0.022-249.549 247.459c-11.103 11.009-11.103 28.859 0 39.868s29.104 11.009 40.207 0z" />
<glyph unicode="&#xe918;" glyph-name="search" d="M1014.283-8.289l-264.38 260.153c69.234 75.221 111.772 174.7 111.772 284.166-0.034 234.167-192.91 423.97-430.857 423.97-237.943 0-430.82-189.803-430.82-423.97 0-234.169 192.877-423.973 430.82-423.973 102.81 0 197.103 35.561 271.169 94.68l265.407-261.183c12.931-12.737 33.926-12.737 46.859 0 12.962 12.737 12.962 33.417 0.028 46.157zM430.82 177.289c-201.325 0-364.532 160.614-364.532 358.741s163.207 358.74 364.532 358.74c201.33 0 364.535-160.613 364.535-358.74s-163.206-358.741-364.535-358.741z" />
<glyph unicode="&#xe919;" glyph-name="sun" d="M520.976 958c25.949-8.317 35.93-26.615 34.599-53.229-0.998-25.617 0-51.233-0.666-76.517-0.665-19.628-14.97-35.597-33.601-39.257-19.296-3.659-39.257 5.989-46.576 23.954-2.994 6.653-3.66 14.638-3.992 22.29-0.333 23.288 0.666 46.576-0.333 69.531-1.331 26.615 8.65 44.912 34.599 53.229 5.323 0 10.646 0 15.969 0zM1.993 455.979c8.317 25.949 26.615 35.93 53.229 34.599 25.617-0.998 51.233 0 76.85-0.666 19.628-0.665 35.93-14.97 39.257-33.601 3.66-19.296-5.988-39.257-23.953-46.576-6.654-2.994-14.638-3.66-22.29-3.992-23.288-0.333-46.576 0.666-69.864-0.333-26.615-1.331-44.912 8.65-53.229 34.599 0 5.323 0 10.646 0 15.969zM1024 440.010c-8.317-25.949-26.613-35.93-53.231-34.599-25.617 0.998-51.234 0-76.846 0.666-19.632 0.666-35.931 14.971-39.259 33.601-3.658 19.296 5.99 39.257 23.95 46.576 6.656 2.994 14.643 3.66 22.295 3.992 23.285 0.333 46.575-0.665 69.86 0.333 26.618 1.331 44.914-8.65 53.231-34.599 0-5.323 0-10.646 0-15.969zM512.994 171.526c-151.703-0.336-276.46 124.086-277.125 276.124-0.333 151.371 124.423 276.128 276.793 276.46 151.704 0.333 276.461-124.091 277.127-276.127 0.33-151.040-124.427-275.797-276.795-276.457zM704.62 446.985c0.666 105.128-85.168 191.626-190.961 192.291-104.795 0.665-191.293-84.502-192.291-189.63-0.998-104.797 84.502-191.627 190.295-192.622 105.126-1.331 192.291 84.503 192.957 189.961zM139.389 773.36c0.665 22.622 8.317 35.597 24.286 43.249 15.636 7.652 31.937 6.654 44.579-5.323 22.955-21.624 45.578-43.581 66.869-66.869 14.638-15.969 11.977-40.92-3.327-55.89-14.971-14.638-39.922-17.299-55.225-2.994-23.62 21.292-45.91 43.914-67.867 67.202-5.656 6.321-7.652 16.302-9.315 20.627zM839.026 820.944c22.625-0.665 35.595-8.649 43.247-24.286 7.322-15.303 6.656-31.272-4.989-43.914-21.623-23.287-44.242-45.91-67.533-67.535-15.969-14.638-41.256-11.644-56.223 3.66-14.638 14.97-16.97 39.922-2.992 55.225 21.623 23.287 44.242 45.91 67.863 67.535 6.326 5.988 16.634 7.652 20.628 9.315zM183.309 73.062c-18.631 2.662-31.938 10.314-39.257 26.283-7.319 15.303-6.987 31.272 4.657 43.918 21.625 23.285 44.247 45.909 67.535 67.533 15.969 14.638 40.92 11.975 56.223-3.328 14.971-15.303 17.299-40.255 2.661-56.223-21.292-22.955-43.581-44.914-66.204-66.202-6.987-5.99-17.299-7.987-25.616-11.981zM843.685 75.378c-11.975 0-21.959 4.659-30.276 12.976-19.627 19.297-39.253 38.593-58.55 58.55-17.63 18.301-17.63 43.918-0.996 60.882 16.634 16.634 42.581 16.97 60.877-0.666 20.964-19.957 41.256-40.585 61.218-61.542 12.305-12.976 13.972-28.945 6.65-45.249-6.65-15.969-21.959-25.281-38.923-24.951zM555.244 23.165c0-13.972 0.333-27.944 0-41.586-0.666-24.951-18.963-43.247-42.584-43.247s-41.918 18.295-42.251 43.583c-0.333 27.608-0.333 54.892 0 82.506 0.333 25.611 17.965 43.247 41.918 43.577 24.286 0 42.251-17.966 42.584-43.913 0.666-13.972 0.666-27.278 0.333-40.92z" />
<glyph unicode="&#xe91a;" glyph-name="tiles-1" d="M857.176 281.26c6.991-4.662 11.32-6.66 14.318-9.656 46.95-46.618 93.567-93.567 140.184-140.184 13.985-13.985 13.985-17.316-0.333-31.634-50.947-51.278-102.225-102.557-153.171-153.504-13.652-13.652-17.315-13.652-30.634-0.333-46.618 46.618-93.568 93.568-140.184 140.518-3.331 3.329-5.661 7.325-8.325 10.988-1.665 0.667-3.329 1-5.327 1.665-2.331-3.996-3.996-8.658-6.993-11.654-46.95-47.283-93.901-94.234-140.851-141.517-12.986-12.986-16.649-12.986-29.636-0.333-46.949 46.95-93.9 94.234-140.85 141.184-3.331 3.329-4.995 7.658-9.656 14.318-6.993-8.658-10.656-13.985-15.318-18.647-45.285-45.618-90.903-91.237-136.522-136.855-12.32-12.32-16.649-12.32-28.636-0.333-51.945 51.945-103.89 104.223-155.835 156.168-12.32 12.32-12.32 16.316 0 28.636 46.95 46.95 93.901 94.234 141.184 141.184 3.329 3.331 7.325 5.327 10.989 8.325 0.333 1.664 0.666 3.329 0.998 4.995-3.996 2.331-8.325 4.329-11.654 7.325-47.283 46.95-94.234 93.901-141.184 141.184-12.986 12.986-12.986 16.649 0 29.635 49.947 49.947 99.894 99.895 150.84 150.84-3.329 3.663-6.327 6.993-9.656 9.989-46.95 46.95-93.901 94.234-140.851 141.184-13.319 13.652-13.319 16.983 0 30.634 51.279 51.612 102.891 102.892 154.171 154.504 12.986 13.319 16.982 12.986 30.634-0.333 46.616-46.617 93.567-93.568 140.184-140.518 3.331-3.329 5.661-7.325 10.323-13.318 6.659 8.324 10.988 14.318 16.315 19.645 42.956 43.287 86.243 86.575 129.53 129.862 19.647 19.646 19.98 19.646 39.292 0.333 45.285-45.285 90.57-90.571 135.523-135.857 3.331-3.329 5.994-6.993 12.654-14.651 3.329 5.661 4.662 10.656 7.991 13.652 46.95 47.283 93.901 94.234 140.851 141.517 12.986 12.986 16.982 12.986 29.636 0.333 51.945-51.945 103.89-104.223 155.835-156.168 11.654-11.654 11.654-16.316 0-27.971-46.95-47.283-93.901-94.234-140.851-141.184-3.331-3.329-6.993-5.66-11.322-9.324 4.329-4.662 7.325-7.991 10.322-10.988 46.95-46.95 93.901-94.234 140.851-141.184 13.32-13.32 13.32-16.983 0-30.634-46.618-46.95-93.234-93.568-140.184-140.186-3.331-3.995-7.325-5.993-14.651-11.654zM179.227 634.552c48.616 48.948 97.563 97.564 145.18 145.513-48.283 48.282-96.899 97.23-144.515 144.846-47.949-47.949-96.897-96.898-145.179-145.512 47.616-47.95 96.232-96.564 144.514-144.847zM509.544 635.218c48.948 49.281 97.897 98.23 145.513 145.846-47.283 47.616-95.899 96.232-143.515 143.848-47.949-48.282-96.897-97.23-145.18-145.512 47.617-47.95 95.899-96.899 143.182-144.182zM698.344 780.731c48.283-48.282 96.897-97.23 143.848-144.18 47.949 47.949 96.897 96.897 144.515 144.513-47.284 47.616-95.899 96.232-143.849 144.181-47.949-47.949-96.563-96.565-144.513-144.514zM35.379 449.082c48.615-48.614 97.563-97.896 145.18-145.512 47.616 47.616 96.23 96.232 144.18 143.848-48.283 48.282-97.231 97.23-145.513 145.846-47.949-47.95-96.564-96.899-143.848-144.182zM509.544 303.57c48.948 48.948 97.897 97.896 145.18 145.512-47.283 47.283-95.899 95.899-143.182 143.515-47.949-47.949-96.897-96.897-145.18-145.512 47.617-47.95 96.232-96.564 143.182-143.515zM987.372 447.75c-48.283 48.282-96.897 97.23-144.18 144.513-47.95-47.949-96.897-96.897-143.848-143.848 47.616-47.949 96.564-96.897 144.18-144.513 47.616 47.283 96.232 95.899 143.848 143.848zM179.227-29.078c48.282 48.282 97.23 97.23 144.513 144.513-47.949 47.949-96.897 96.897-143.515 143.848-47.616-47.949-96.564-96.897-144.18-144.513 46.95-47.616 95.566-96.232 143.182-143.848zM655.389 114.436c-48.948 48.948-97.563 97.564-145.18 145.18-47.283-47.283-96.23-96.232-143.848-143.848 48.283-48.282 96.897-97.23 145.18-145.513 47.949 48.283 96.564 96.897 143.848 144.18zM842.857 261.281c-48.614-48.616-97.23-97.564-144.846-145.18 48.283-48.282 96.897-97.23 144.18-144.513 47.949 47.949 96.897 96.897 144.847 145.18-47.283 47.616-95.899 96.23-144.182 144.513zM676.7 469.394c47.949 48.283 96.564 96.897 144.18 144.18-47.949 47.95-96.564 96.564-143.515 143.515-47.616-47.616-96.232-96.232-144.18-144.18 47.283-47.283 95.566-95.899 143.515-143.515zM677.699 425.774c-48.282-48.283-96.897-96.899-144.846-145.18 47.283-47.616 95.566-95.899 143.182-143.515 48.282 48.283 96.897 96.897 144.846 144.847-47.283 47.949-95.565 96.23-143.182 143.848zM201.536 614.241c47.95-47.95 96.564-96.564 143.182-143.515 47.616 47.949 96.232 96.564 144.18 144.18-47.283 47.283-95.565 95.898-143.181 143.515-47.95-47.95-96.564-96.564-144.182-144.18zM345.051 138.079c47.617 47.949 96.232 96.564 142.849 143.181-47.616 47.617-95.899 96.232-143.848 144.18-47.283-47.283-95.566-95.898-142.849-143.181 47.95-48.283 96.564-96.897 143.848-144.18z" />
<glyph unicode="&#xe91b;" glyph-name="tiles-2" d="M512 960c163.212 0 326.425 0 489.638 0 19.692 0 22.362-2.67 22.362-22.363 0-326.425 0-652.85 0-979.275 0-19.359-2.671-22.362-22.362-22.362-326.426 0-652.85 0-979.275 0-19.359 0-22.363 2.67-22.363 22.362 0 326.426 0 652.85 0 979.275 0 19.692 2.67 22.363 22.363 22.363 163.213 0 326.425 0 489.637 0zM488.636 695.989c-75.432 75.432-151.53 151.53-226.629 226.629-75.098-75.098-151.197-151.197-225.627-225.627 75.098-75.098 151.197-151.197 226.629-226.629 75.098 74.764 150.863 150.864 225.627 225.627zM262.008-27.953c76.1 76.1 151.864 151.864 226.962 226.962-75.432 75.432-151.53 151.53-226.629 226.629-75.432-75.432-151.197-151.198-226.962-226.962 74.764-75.098 150.863-150.863 226.629-226.629zM760.323 922.284c-75.431-75.431-151.197-151.531-225.293-225.627 75.098-75.097 151.197-151.197 226.629-226.629 74.764 74.764 150.529 150.53 225.627 225.627-76.099 75.766-152.198 151.864-226.962 226.629zM533.361 199.677c75.432-75.432 151.532-151.53 226.629-226.629 75.098 75.098 151.198 151.197 225.961 225.961-75.431 75.432-151.53 151.53-226.629 226.629-75.097-75.098-151.197-150.864-225.961-225.961zM498.315 931.964c-68.423 0-135.843 0-200.261 0 66.42-66.42 133.841-133.841 200.261-200.26 0 65.418 0 132.839 0 200.26zM525.351 932.631c0-68.422 0-135.176 0-198.926 65.752 65.752 132.839 132.84 198.925 198.926-64.417 0-131.17 0-198.925 0zM795.036 932.965c67.421-67.421 134.841-134.842 201.595-201.596 0 65.419 0 133.174 0 201.596-68.755 0-136.177 0-201.595 0zM498.315 461.017c0 68.423 0 135.51 0 198.591-65.752-65.752-132.839-132.839-198.591-198.591 63.749 0 130.836 0 198.591 0zM996.965 662.947c-67.087-67.421-134.509-134.509-200.929-201.262 65.419 0 132.84 0 200.929 0 0 67.755 0 135.176 0 201.262zM300.725 434.649c65.752-65.752 132.839-132.839 197.59-197.591 0 62.749 0 129.836 0 197.591-68.089 0-134.842 0-197.59 0zM996.631 232.387c0 66.754 0 133.841 0 201.929-68.088 0-135.509 0-201.595 0 67.087-67.087 134.175-134.509 201.595-201.929zM498.649 162.962c-66.42-66.42-133.841-133.841-199.593-199.594 64.083 0 131.504 0 199.593 0 0 68.089 0 135.51 0 199.594zM725.612-36.965c-67.087 67.087-133.841 133.842-200.261 200.262 0-65.419 0-132.507 0-200.262 67.755 0 134.509 0 200.261 0zM996.631 163.296c-66.42-66.42-134.175-134.175-200.261-200.262 64.418 0 131.839 0 200.261 0 0 68.423 0 136.178 0 200.262zM721.273 461.351c-65.085 65.084-131.505 131.504-195.922 195.922 0-62.415 0-128.835 0-195.922 67.421 0 133.507 0 195.922 0zM525.017 236.058c66.086 66.086 132.506 132.506 197.924 197.924-64.417 0-130.836 0-197.924 0 0-66.754 0-133.173 0-197.924zM230.3 932.631c-68.755 0-135.51 0-202.597 0 0-67.755 0-134.842 0-202.597 67.755 67.755 134.508 134.174 202.597 202.597zM226.295 461.351c-66.42 66.42-132.84 132.839-198.926 199.259 0-65.084 0-131.838 0-199.259 67.087 0 133.507 0 198.926 0zM27.035 434.315c0-67.421 0-133.841 0-198.258 66.086 66.086 132.506 132.506 198.258 198.258-64.083 0-130.837 0-198.258 0zM225.627-36.965c-66.086 66.087-132.84 132.84-198.258 198.259 0-63.75 0-130.838 0-198.259 67.755 0 134.508 0 198.258 0z" />
</font>
</defs>
</svg>
